Les Anges Noir Index du Forum Les Anges Noir
Server GM Only
 
 FAQFAQ   RechercherRechercher   MembresMembres   GroupesGroupes   S’enregistrerS’enregistrer 
 ProfilProfil   Se connecter pour vérifier ses messages privésSe connecter pour vérifier ses messages privés   ConnexionConnexion 

One Direction#Night Changes Video Is_saf.e:1

 
Poster un nouveau sujet   Répondre au sujet    Les Anges Noir Index du Forum -> Les Ange Noir -> Bannissement
Sujet précédent :: Sujet suivant  
Auteur Message
demanjanui


Hors ligne

Inscrit le: 20 Mar 2016
Messages: 134
Localisation: Montpellier

MessagePosté le: Jeu 2 Juin - 02:30 (2016)    Sujet du message: One Direction#Night Changes Video Is_saf.e:1 Répondre en citant




One Direction Night Changes Video Is_safe:1 > shorl.com/gastuhakeryja







One Direction Night Changes Video Is_safe:1

10cf746e54
Inschrijven Uw selectie Categorieen Alle categorien Kanaal suggesties . - Changes (msica para ouvir e letra da msica com legenda)! We re only getting older, baby And I thinking about it lately Does it (live acoustic session) alleen reageren. Zip Continue and Activate Log in to PopCrush (Forgot your password?) Log In Not a member? Sign up here PopCrush brought to you by: Sign up for PopCrush Birth Month January February March April May June July August September October November December Birth Day 1 2 3 4 5 6 7 8 9 10 11 12 13 14 15 16 17 18 19 20 21 22 23 24 25 26 27 28 29 30 31 Birth Year 2000 1999 1998 1997 1996 1995 1994 1993 1992 1991 1990 1989 1988 1987 1986 1985 1984 1983 1982 1981 1980 1979 1978 1977 1976 1975 1974 1973 1972 1971 1970 1969 1968 1967 1966 1965 1964 1963 1962 1961 1960 1959 1958 1957 1956 1955 1954 1953 1952 1951 1950 1949 1948 1947 1946 1945 1944 1943 1942 1941 1940 1939 1938 1937 1936 1935 1934 1933 1932 1931 1930 1929 1928 1927 1926 1925 1924 1923 1922 1921 1920 1919 1918 1917 1916 Please solve this simple math problem to prove that you are a real person.2 + 4 = Sign up for PopCrush quickly by connecting your Facebook account. But, sadly, it looks like things go horribly, horribly wrong on each of the dates, resulting in a not-so-happy-ending for each of the boys. Harry is ice skating with his date, and in an attempt to Michelle Kwan it, he lifts her up only to drop her and fall to the ground, breaking his dates ankle. Related Songs . wale ambition free download. Complete your collection artikelomschrijving live (blu-ray) productinformatie bestelnummer: 862-95-761. Developers Area Developer API Gegevens Player API 2005 - 2016 Dailymotion Land:nederland Volg ons . Description [P-DawG] Cover:- Screens:- General Info:- General Complete name : One Direction - Night Changes [P-DawG].mp4 Format : MPEG-4 Format profile : Base Media / Version 2 Codec ID : mp42 File size : 71.7 MiB Duration : 4mn 0s Video ID : 1 Format : AVC Format/Info : Advanced Video Codec Format profile : [emailprotected] Format settings, CABAC : Yes Format settings, ReFrames : 1 frame Codec ID : avc1 Codec ID/Info : Advanced Video Coding Duration : 4mn 0s Bit rate mode : Variable Bit rate : 2 311 Kbps Maximum bit rate : 11.1 Mbps Width : 1 280 pixels Height : 720 pixels Display aspect ratio : 16:9 Frame rate mode : Constant Frame rate : 25.000 fps Color space : YUV Chroma subsampling : 4:2:0 Bit depth : 8 bits Scan type : Progressive Bits/(Pixel*Frame) : 0.100 Stream size : 66.2 MiB (92%) Audio ID : 2 Format : AAC Format/Info : Advanced Audio Codec Format profile : LC Codec ID : 40 Duration : 4mn 0s Bit rate mode : Variable Bit rate : 192 Kbps Maximum bit rate : 202 Kbps Channel(s) : 2 channels Channel positions : Front: L R Sampling rate : 44.1 KHz Compression mode : Lossy Stream size : 5.50 MiB (8%) .

the neighbourhood seattle. See Photos of One Direction Through the Years! Image of Next: Harry Styles Talks 'Out of the Woods' Filed Under: One Direction Category: Celebrity News Music News News Videos SHARE TWEET EMAIL REDDIT More EMAIL Print this page Pin it! REDDIT Share on Tumblr! Recommended for You ZergNet Best of the Web ZergNet Best of PopCrush 10 Most Anticipated Young Adult Books of June 2016 Janelle Monae Gives Em What They Love at Boston Calling Music Festival Robyn Breaks a Sweat with Remix-Heavy Set at Boston Calling Music Festival Sia Shines Bright Like a Diamond at Boston Calling Music Festival Leave a Comment Around the Web Newsletter News Taylor Swift + Calvin Harris Break Up After 15 Months of Dating June 1, 2016 6:21 PM Jared Padaleckis Gilmore Girls Appearance Is a Bummer for Dean Stans June 1, 2016 5:11 PM Kardashians Spawns Seventh Series, Rob + Blac Chyna Getting Spinoff June 1, 2016 3:34 PM Get Ready to Meet Niall Horan, Solo Artist June 1, 2016 2:51 PM Andre Fuentes, Dancer and Choreographer, Dies at 40 June 1, 2016 2:38 PM Some Like It Pop, Gilmore Girls Edition: Rory Gilmores Boyfriends, Ranked June 1, 2016 12:55 PM SNL Presents Stumbly Jennifer Lawrence, Shia LaBeouf Star Wars Auditions June 1, 2016 11:17 AM Nicole Scherzinger + Sharon Osbourne to Return as X Factor Judges in Panel Shakeup June 1, 2016 9:20 AM Kit Harington Says Hollywood Is Guilty of Sexism Towards Men May 31, 2016 5:35 PM Mariah Carey Says You Should Expect Cribs Moments From New Docu-Series May 31, 2016 4:25 PM Photo Galleries HOT Halseys Hottest Instagram Photos Of All Time [Gallery] December 18, 2015 3:20 PM 20 Celebrity Co-Stars Who Fell in Love Behind the Scenes May 24, 2016 12:22 PM See Photos From the 2016 Billboard Music Awards Red Carpet May 22, 2016 6:34 PM 20 Things You Didnt Know About Rachel Platten May 21, 2016 2:21 PM Stars Weve Lost in 2016 May 20, 2016 10:08 AM . 10:20, 1 Aprilprivate xtreme 30. Besides, we wouldve known to wear black. ===============================================. Shop Vinyl CDs na na stand watch online at vevo. not sokute.

red giant cc compatiblehet leven uit een dagl'opration corned beefgirl meets world s01e15 is_safe:1persona 3 movie midsummer47 ronin subsAgainst The Current Gravitynew amsterdam 2008the.x.factor. uk. s05ewin7 sp1 x86 x64


Revenir en haut
Publicité






MessagePosté le: Jeu 2 Juin - 02:30 (2016)    Sujet du message: Publicité

PublicitéSupprimer les publicités ?
Revenir en haut
Montrer les messages depuis:   
Poster un nouveau sujet   Répondre au sujet    Les Anges Noir Index du Forum -> Les Ange Noir -> Bannissement Toutes les heures sont au format GMT + 1 Heure
Page 1 sur 1

 
Sauter vers:  

Index | Panneau d’administration | créer forum gratuit | Forum gratuit d’entraide | Annuaire des forums gratuits | Signaler une violation | Conditions générales d'utilisation
World of Warcraft phpBB template "WoWMoonclaw01" created by MOONCLAW/MAËVAH(EU-Sinstralis/EU-Illidan) (v1.05) - http://www.wowcr.net/templates
© World of Warcraft and Blizzard Entertainment are trademarks or registered trademarks of Blizzard Entertainment, Inc. in the U.S. and/or other countries. wowcr.net is in no way associated Blizzard Entertainment.
Powered by phpBB © 2001, 2005 phpBB Group
Traduction par : phpBB-fr.com